Recent discs are split with multiple M2TS.

Please post here for issues related to Blu-ray discs
Post Reply
Yoshitaka
Posts: 7
Joined: Sun Mar 27, 2022 1:41 am

Recent discs are split with multiple M2TS.

Post by Yoshitaka »

I am having an issue extracting subtitles from a disc, from a multiple M2TS release. It also seems like this is not the only one recently that has been made like this. This does seem new, so some insight into that is appreciated.
I know I can use the mpls to extract, but this is new in that I cannot access the subtitles unless playing the disc.
American disc, and GBR disc, has the same build. The disc info says it has subtitles, but if you try to extract them, you only get half of them. None of the files have the rest of the subtitles..
My Young Auntie 1981 is the title.
US:

Code: Select all

                                                                                                                Total   Video                                             
Title                                                           Codec   Length  Movie Size      Disc Size       Bitrate Bitrate Main Audio Track                          Secondary Audio Track
-----                                                           ------  ------- --------------  --------------  ------- ------- ------------------                        ---------------------
00001.MPLS                                                      AVC     1:59:12 31,844,811,072  48,564,368,712  35.62   29.88   DTS-HD Master 1.0 1063Kbps (48kHz/24-bit) DTS-HD Master 1.0 1066Kbps (48kHz/24-bit)

Code: Select all


PLAYLIST REPORT:

Name:                   00001.MPLS
Length:                 1:59:12.103 (h:m:s.ms)
Size:                   31,844,811,072 bytes
Total Bitrate:          35.62 Mbps

VIDEO:

Codec                   Bitrate             Description     
-----                   -------             -----------     
MPEG-4 AVC Video        29883 kbps          1080p / 23.976 fps / 16:9 / High Profile 4.1

AUDIO:

Codec                           Language        Bitrate         Description     
-----                           --------        -------         -----------     
DTS-HD Master Audio             Chinese         1063 kbps       1.0 / 48 kHz /  1063 kbps / 24-bit (DTS Core: 1.0 / 48 kHz /   768 kbps / 24-bit)
DTS-HD Master Audio             Chinese         1066 kbps       1.0 / 48 kHz /  1066 kbps / 24-bit (DTS Core: 1.0 / 48 kHz /   768 kbps / 24-bit)
DTS-HD Master Audio             English         1073 kbps       1.0 / 48 kHz /  1073 kbps / 24-bit (DTS Core: 1.0 / 48 kHz /   768 kbps / 24-bit)
Dolby Digital Audio             English         320 kbps        2.0 / 48 kHz /   320 kbps / DN -31dB

SUBTITLES:

Codec                           Language        Bitrate         Description     
-----                           --------        -------         -----------     
Presentation Graphics           English         31.256 kbps                     
Presentation Graphics           English         31.242 kbps                     
Presentation Graphics           English         34.221 kbps                     
Presentation Graphics           English         0.552 kbps                      

FILES:

Name            Time In         Length          Size            Total Bitrate   
----            -------         ------          ----            -------------   
00014.M2TS      0:00:00.000     0:00:01.000     427,392         3,279           
00005.M2TS      0:00:01.000     0:24:19.374     6,506,999,232   35,669          
00016.M2TS      0:24:20.375     0:54:14.668     14,492,106,432  35,621          
00017.M2TS      1:18:35.043     0:22:21.965     5,973,951,936   35,612          
00006.M2TS      1:40:57.009     0:18:14.093     4,871,310,336   35,618          
00015.M2TS      1:59:11.102     0:00:01.000     15,744          121             

CHAPTERS:

Number          Time In         Length          Avg Video Rate  Max 1-Sec Rate  Max 1-Sec Time  Max 5-Sec Rate  Max 5-Sec Time  Max 10Sec Rate  Max 10Sec Time  Avg Frame Size  Max Frame Size  Max Frame Time  
------          -------         ------          --------------  --------------  --------------  --------------  --------------  --------------  --------------  --------------  --------------  --------------  
1               0:00:00.000     0:12:11.272     29,617 kbps     43,376 kbps     00:01:16.868    35,005 kbps     00:06:40.775    33,768 kbps     00:11:25.684    154,418 bytes   446,138 bytes   00:05:24.574    
2               0:12:11.272     0:06:36.646     29,551 kbps     38,925 kbps     00:18:34.321    34,455 kbps     00:13:06.285    33,504 kbps     00:18:14.551    154,067 bytes   451,910 bytes   00:16:38.914    
3               0:18:47.918     0:09:26.941     30,711 kbps     40,799 kbps     00:19:40.637    35,565 kbps     00:23:39.376    33,883 kbps     00:27:56.216    160,127 bytes   453,423 bytes   00:27:29.314    
4               0:28:14.859     0:14:43.048     29,078 kbps     41,962 kbps     00:33:07.819    34,940 kbps     00:32:43.294    33,270 kbps     00:32:29.739    151,597 bytes   452,956 bytes   00:31:46.362    
5               0:42:57.908     0:07:43.337     29,296 kbps     41,131 kbps     00:47:05.781    34,872 kbps     00:48:21.064    33,479 kbps     00:46:44.801    152,737 bytes   401,772 bytes   00:50:41.204    
6               0:50:41.246     0:14:59.815     31,609 kbps     42,042 kbps     01:02:35.334    35,321 kbps     00:52:20.053    33,661 kbps     01:03:18.920    164,796 bytes   424,138 bytes   01:00:47.477    
7               1:05:41.062     0:07:41.752     30,066 kbps     43,072 kbps     01:09:09.019    34,800 kbps     01:09:09.019    33,259 kbps     01:07:48.439    156,750 bytes   394,949 bytes   01:05:45.900    
8               1:13:22.815     0:05:12.228     27,193 kbps     41,970 kbps     01:16:49.688    35,106 kbps     01:17:48.497    33,329 kbps     01:13:26.485    141,793 bytes   430,179 bytes   01:17:22.095    
9               1:18:35.043     0:11:45.538     29,666 kbps     43,615 kbps     01:23:54.070    34,799 kbps     01:23:21.287    33,575 kbps     01:21:43.565    154,663 bytes   487,972 bytes   01:24:35.445    
10              1:30:20.581     0:08:52.281     31,285 kbps     41,314 kbps     01:34:34.585    34,715 kbps     01:36:38.417    33,592 kbps     01:32:47.645    163,108 bytes   465,563 bytes   01:37:12.034    
11              1:39:12.863     0:10:47.730     29,951 kbps     41,423 kbps     01:48:29.002    35,518 kbps     01:42:13.669    33,836 kbps     01:48:06.938    156,160 bytes   459,848 bytes   01:43:51.516    
12              1:50:00.593     0:09:10.508     28,874 kbps     38,651 kbps     01:51:24.177    34,726 kbps     01:51:20.548    33,230 kbps     01:53:09.282    150,558 bytes   416,993 bytes   01:50:17.944    
13              1:59:11.102     0:00:01.001     23 kbps         0 kbps          00:00:00.000    0 kbps          00:00:00.000    0 kbps          00:00:00.000    139 bytes       158 bytes       01:59:11.769    

STREAM DIAGNOSTICS:

File            PID             Type            Codec           Language                Seconds                 Bitrate                 Bytes           Packets         
----            ---             ----            -----           --------                --------------          --------------          -------------   -----           
00014.M2TS      4113 (0x1011)   0x1B            AVC                                     0.876                   41                      4,531           32              
00014.M2TS      4352 (0x1100)   0x86            DTS-HD MA       zho (Chinese)           0.876                   965                     105,616         630             
00014.M2TS      4353 (0x1101)   0x86            DTS-HD MA       zho (Chinese)           0.876                   965                     105,616         630             
00014.M2TS      4354 (0x1102)   0x86            DTS-HD MA       eng (English)           0.876                   965                     105,616         630             
00014.M2TS      4355 (0x1103)   0x81            AC3             eng (English)           0.876                   362                     39,680          248             
00005.M2TS      4113 (0x1011)   0x1B            AVC                                     1459.291                29,917                  5,457,142,190   29,679,275      
00005.M2TS      4352 (0x1100)   0x86            DTS-HD MA       zho (Chinese)           1459.291                1,059                   193,155,356     1,221,217       
00005.M2TS      4353 (0x1101)   0x86            DTS-HD MA       zho (Chinese)           1459.291                1,060                   193,402,508     1,225,655       
00005.M2TS      4354 (0x1102)   0x86            DTS-HD MA       eng (English)           1459.291                1,072                   195,475,936     1,229,423       
00005.M2TS      4355 (0x1103)   0x81            AC3             eng (English)           1459.291                320                     58,375,680      364,848         
00005.M2TS      4608 (0x1200)   0x90            PGS             eng (English)           1459.291                38                      6,936,046       40,011          
00005.M2TS      4609 (0x1201)   0x90            PGS             eng (English)           1459.291                38                      6,841,736       39,496          
00005.M2TS      4610 (0x1202)   0x90            PGS             eng (English)           1459.291                40                      7,247,865       42,057          
00005.M2TS      4611 (0x1203)   0x90            PGS             eng (English)           1459.291                1                       201,412         1,153           
00016.M2TS      4113 (0x1011)   0x1B            AVC                                     3254.585                29,867                  12,150,460,286  66,081,698      
00016.M2TS      4352 (0x1100)   0x86            DTS-HD MA       zho (Chinese)           3254.585                1,065                   433,390,620     2,730,528       
00016.M2TS      4353 (0x1101)   0x86            DTS-HD MA       zho (Chinese)           3254.585                1,068                   434,439,636     2,738,115       
00016.M2TS      4354 (0x1102)   0x86            DTS-HD MA       eng (English)           3254.585                1,075                   437,265,680     2,741,958       
00016.M2TS      4355 (0x1103)   0x81            AC3             eng (English)           3254.585                320                     130,187,520     813,672         
00016.M2TS      4608 (0x1200)   0x90            PGS             eng (English)           3254.585                36                      14,459,578      83,785          
00016.M2TS      4609 (0x1201)   0x90            PGS             eng (English)           3254.585                36                      14,455,972      83,836          
00016.M2TS      4610 (0x1202)   0x90            PGS             eng (English)           3254.585                41                      16,563,853      96,693          
00016.M2TS      4611 (0x1203)   0x90            PGS             eng (English)           3254.585                1                       280,460         1,633           
00017.M2TS      4113 (0x1011)   0x1B            AVC                                     1341.882                29,907                  5,016,436,604   27,282,371      
00017.M2TS      4352 (0x1100)   0x86            DTS-HD MA       zho (Chinese)           1341.882                1,057                   177,298,360     1,119,366       
00017.M2TS      4353 (0x1101)   0x86            DTS-HD MA       zho (Chinese)           1341.882                1,063                   178,292,624     1,126,566       
00017.M2TS      4354 (0x1102)   0x86            DTS-HD MA       eng (English)           1341.882                1,069                   179,228,208     1,130,115       
00017.M2TS      4355 (0x1103)   0x81            AC3             eng (English)           1341.882                320                     53,679,360      335,496         
00017.M2TS      4608 (0x1200)   0x90            PGS             eng (English)           1341.882                26                      4,390,802       25,369          
00017.M2TS      4609 (0x1201)   0x90            PGS             eng (English)           1341.882                27                      4,456,666       25,753          
00017.M2TS      4610 (0x1202)   0x90            PGS             eng (English)           1341.882                26                      4,384,853       25,491          
00017.M2TS      4611 (0x1203)   0x90            PGS             eng (English)           1341.882                0                       11,429          69              
00006.M2TS      4113 (0x1011)   0x1B            AVC                                     1094.010                29,937                  4,093,969,500   22,265,522      
00006.M2TS      4352 (0x1100)   0x86            DTS-HD MA       zho (Chinese)           1094.010                1,070                   146,358,564     917,620         
00006.M2TS      4353 (0x1101)   0x86            DTS-HD MA       zho (Chinese)           1094.010                1,073                   146,742,704     919,106         
00006.M2TS      4354 (0x1102)   0x86            DTS-HD MA       eng (English)           1094.010                1,079                   147,571,728     921,135         
00006.M2TS      4355 (0x1103)   0x81            AC3             eng (English)           1094.010                320                     43,764,480      273,528         
00006.M2TS      4608 (0x1200)   0x90            PGS             eng (English)           1094.010                16                      2,158,186       12,531          
00006.M2TS      4609 (0x1201)   0x90            PGS             eng (English)           1094.010                16                      2,177,389       12,635          
00006.M2TS      4610 (0x1202)   0x90            PGS             eng (English)           1094.010                18                      2,398,148       14,064          
00006.M2TS      4611 (0x1203)   0x90            PGS             eng (English)           1094.010                0                       137             8               
00015.M2TS      4113 (0x1011)   0x1B            AVC                                     0.876                   41                      4,531           32              

GBR:

Code: Select all

                                                                                                                Total   Video                                             
Title                                                           Codec   Length  Movie Size      Disc Size       Bitrate Bitrate Main Audio Track                          Secondary Audio Track
-----                                                           ------  ------- --------------  --------------  ------- ------- ------------------                        ---------------------
00001.MPLS                                                      AVC     1:59:12 31,844,811,072  48,564,368,926  35.62   29.88   DTS-HD Master 1.0 1063Kbps (48kHz/24-bit) DTS-HD Master 1.0 1066Kbps (48kHz/24-bit)

Code: Select all


PLAYLIST REPORT:

Name:                   00001.MPLS
Length:                 1:59:12.103 (h:m:s.ms)
Size:                   31,844,811,072 bytes
Total Bitrate:          35.62 Mbps

VIDEO:

Codec                   Bitrate             Description     
-----                   -------             -----------     
MPEG-4 AVC Video        29883 kbps          1080p / 23.976 fps / 16:9 / High Profile 4.1

AUDIO:

Codec                           Language        Bitrate         Description     
-----                           --------        -------         -----------     
DTS-HD Master Audio             Chinese         1063 kbps       1.0 / 48 kHz /  1063 kbps / 24-bit (DTS Core: 1.0 / 48 kHz /   768 kbps / 24-bit)
DTS-HD Master Audio             Chinese         1066 kbps       1.0 / 48 kHz /  1066 kbps / 24-bit (DTS Core: 1.0 / 48 kHz /   768 kbps / 24-bit)
DTS-HD Master Audio             English         1073 kbps       1.0 / 48 kHz /  1073 kbps / 24-bit (DTS Core: 1.0 / 48 kHz /   768 kbps / 24-bit)
Dolby Digital Audio             English         320 kbps        2.0 / 48 kHz /   320 kbps / DN -31dB

SUBTITLES:

Codec                           Language        Bitrate         Description     
-----                           --------        -------         -----------     
Presentation Graphics           English         31.256 kbps                     
Presentation Graphics           English         31.242 kbps                     
Presentation Graphics           English         34.221 kbps                     
Presentation Graphics           English         0.552 kbps                      

FILES:

Name            Time In         Length          Size            Total Bitrate   
----            -------         ------          ----            -------------   
00014.M2TS      0:00:00.000     0:00:01.000     427,392         3,279           
00005.M2TS      0:00:01.000     0:24:19.374     6,506,999,232   35,669          
00016.M2TS      0:24:20.375     0:54:14.668     14,492,106,432  35,621          
00017.M2TS      1:18:35.043     0:22:21.965     5,973,951,936   35,612          
00006.M2TS      1:40:57.009     0:18:14.093     4,871,310,336   35,618          
00015.M2TS      1:59:11.102     0:00:01.000     15,744          121             

CHAPTERS:

Number          Time In         Length          Avg Video Rate  Max 1-Sec Rate  Max 1-Sec Time  Max 5-Sec Rate  Max 5-Sec Time  Max 10Sec Rate  Max 10Sec Time  Avg Frame Size  Max Frame Size  Max Frame Time  
------          -------         ------          --------------  --------------  --------------  --------------  --------------  --------------  --------------  --------------  --------------  --------------  
1               0:00:00.000     0:12:11.272     29,617 kbps     43,376 kbps     00:01:16.868    35,005 kbps     00:06:40.775    33,768 kbps     00:11:25.684    154,418 bytes   446,138 bytes   00:05:24.574    
2               0:12:11.272     0:06:36.646     29,551 kbps     38,925 kbps     00:18:34.321    34,455 kbps     00:13:06.285    33,504 kbps     00:18:14.551    154,067 bytes   451,910 bytes   00:16:38.914    
3               0:18:47.918     0:09:26.941     30,711 kbps     40,799 kbps     00:19:40.637    35,565 kbps     00:23:39.376    33,883 kbps     00:27:56.216    160,127 bytes   453,423 bytes   00:27:29.314    
4               0:28:14.859     0:14:43.048     29,078 kbps     41,962 kbps     00:33:07.819    34,940 kbps     00:32:43.294    33,270 kbps     00:32:29.739    151,597 bytes   452,956 bytes   00:31:46.362    
5               0:42:57.908     0:07:43.337     29,296 kbps     41,131 kbps     00:47:05.781    34,872 kbps     00:48:21.064    33,479 kbps     00:46:44.801    152,737 bytes   401,772 bytes   00:50:41.204    
6               0:50:41.246     0:14:59.815     31,609 kbps     42,042 kbps     01:02:35.334    35,321 kbps     00:52:20.053    33,661 kbps     01:03:18.920    164,796 bytes   424,138 bytes   01:00:47.477    
7               1:05:41.062     0:07:41.752     30,066 kbps     43,072 kbps     01:09:09.019    34,800 kbps     01:09:09.019    33,259 kbps     01:07:48.439    156,750 bytes   394,949 bytes   01:05:45.900    
8               1:13:22.815     0:05:12.228     27,193 kbps     41,970 kbps     01:16:49.688    35,106 kbps     01:17:48.497    33,329 kbps     01:13:26.485    141,793 bytes   430,179 bytes   01:17:22.095    
9               1:18:35.043     0:11:45.538     29,666 kbps     43,615 kbps     01:23:54.070    34,799 kbps     01:23:21.287    33,575 kbps     01:21:43.565    154,663 bytes   487,972 bytes   01:24:35.445    
10              1:30:20.581     0:08:52.281     31,285 kbps     41,314 kbps     01:34:34.585    34,715 kbps     01:36:38.417    33,592 kbps     01:32:47.645    163,108 bytes   465,563 bytes   01:37:12.034    
11              1:39:12.863     0:10:47.730     29,951 kbps     41,423 kbps     01:48:29.002    35,518 kbps     01:42:13.669    33,836 kbps     01:48:06.938    156,160 bytes   459,848 bytes   01:43:51.516    
12              1:50:00.593     0:09:10.508     28,874 kbps     38,651 kbps     01:51:24.177    34,726 kbps     01:51:20.548    33,230 kbps     01:53:09.282    150,558 bytes   416,993 bytes   01:50:17.944    
13              1:59:11.102     0:00:01.001     23 kbps         0 kbps          00:00:00.000    0 kbps          00:00:00.000    0 kbps          00:00:00.000    139 bytes       158 bytes       01:59:11.769    

STREAM DIAGNOSTICS:

File            PID             Type            Codec           Language                Seconds                 Bitrate                 Bytes           Packets         
----            ---             ----            -----           --------                --------------          --------------          -------------   -----           
00014.M2TS      4113 (0x1011)   0x1B            AVC                                     0.876                   41                      4,531           32              
00014.M2TS      4352 (0x1100)   0x86            DTS-HD MA       zho (Chinese)           0.876                   965                     105,616         630             
00014.M2TS      4353 (0x1101)   0x86            DTS-HD MA       zho (Chinese)           0.876                   965                     105,616         630             
00014.M2TS      4354 (0x1102)   0x86            DTS-HD MA       eng (English)           0.876                   965                     105,616         630             
00014.M2TS      4355 (0x1103)   0x81            AC3             eng (English)           0.876                   362                     39,680          248             
00005.M2TS      4113 (0x1011)   0x1B            AVC                                     1459.291                29,917                  5,457,142,190   29,679,275      
00005.M2TS      4352 (0x1100)   0x86            DTS-HD MA       zho (Chinese)           1459.291                1,059                   193,155,356     1,221,217       
00005.M2TS      4353 (0x1101)   0x86            DTS-HD MA       zho (Chinese)           1459.291                1,060                   193,402,508     1,225,655       
00005.M2TS      4354 (0x1102)   0x86            DTS-HD MA       eng (English)           1459.291                1,072                   195,475,936     1,229,423       
00005.M2TS      4355 (0x1103)   0x81            AC3             eng (English)           1459.291                320                     58,375,680      364,848         
00005.M2TS      4608 (0x1200)   0x90            PGS             eng (English)           1459.291                38                      6,936,046       40,011          
00005.M2TS      4609 (0x1201)   0x90            PGS             eng (English)           1459.291                38                      6,841,736       39,496          
00005.M2TS      4610 (0x1202)   0x90            PGS             eng (English)           1459.291                40                      7,247,865       42,057          
00005.M2TS      4611 (0x1203)   0x90            PGS             eng (English)           1459.291                1                       201,412         1,153           
00016.M2TS      4113 (0x1011)   0x1B            AVC                                     3254.585                29,867                  12,150,460,286  66,081,698      
00016.M2TS      4352 (0x1100)   0x86            DTS-HD MA       zho (Chinese)           3254.585                1,065                   433,390,620     2,730,528       
00016.M2TS      4353 (0x1101)   0x86            DTS-HD MA       zho (Chinese)           3254.585                1,068                   434,439,636     2,738,115       
00016.M2TS      4354 (0x1102)   0x86            DTS-HD MA       eng (English)           3254.585                1,075                   437,265,680     2,741,958       
00016.M2TS      4355 (0x1103)   0x81            AC3             eng (English)           3254.585                320                     130,187,520     813,672         
00016.M2TS      4608 (0x1200)   0x90            PGS             eng (English)           3254.585                36                      14,459,578      83,785          
00016.M2TS      4609 (0x1201)   0x90            PGS             eng (English)           3254.585                36                      14,455,972      83,836          
00016.M2TS      4610 (0x1202)   0x90            PGS             eng (English)           3254.585                41                      16,563,853      96,693          
00016.M2TS      4611 (0x1203)   0x90            PGS             eng (English)           3254.585                1                       280,460         1,633           
00017.M2TS      4113 (0x1011)   0x1B            AVC                                     1341.882                29,907                  5,016,436,604   27,282,371      
00017.M2TS      4352 (0x1100)   0x86            DTS-HD MA       zho (Chinese)           1341.882                1,057                   177,298,360     1,119,366       
00017.M2TS      4353 (0x1101)   0x86            DTS-HD MA       zho (Chinese)           1341.882                1,063                   178,292,624     1,126,566       
00017.M2TS      4354 (0x1102)   0x86            DTS-HD MA       eng (English)           1341.882                1,069                   179,228,208     1,130,115       
00017.M2TS      4355 (0x1103)   0x81            AC3             eng (English)           1341.882                320                     53,679,360      335,496         
00017.M2TS      4608 (0x1200)   0x90            PGS             eng (English)           1341.882                26                      4,390,802       25,369          
00017.M2TS      4609 (0x1201)   0x90            PGS             eng (English)           1341.882                27                      4,456,666       25,753          
00017.M2TS      4610 (0x1202)   0x90            PGS             eng (English)           1341.882                26                      4,384,853       25,491          
00017.M2TS      4611 (0x1203)   0x90            PGS             eng (English)           1341.882                0                       11,429          69              
00006.M2TS      4113 (0x1011)   0x1B            AVC                                     1094.010                29,937                  4,093,969,500   22,265,522      
00006.M2TS      4352 (0x1100)   0x86            DTS-HD MA       zho (Chinese)           1094.010                1,070                   146,358,564     917,620         
00006.M2TS      4353 (0x1101)   0x86            DTS-HD MA       zho (Chinese)           1094.010                1,073                   146,742,704     919,106         
00006.M2TS      4354 (0x1102)   0x86            DTS-HD MA       eng (English)           1094.010                1,079                   147,571,728     921,135         
00006.M2TS      4355 (0x1103)   0x81            AC3             eng (English)           1094.010                320                     43,764,480      273,528         
00006.M2TS      4608 (0x1200)   0x90            PGS             eng (English)           1094.010                16                      2,158,186       12,531          
00006.M2TS      4609 (0x1201)   0x90            PGS             eng (English)           1094.010                16                      2,177,389       12,635          
00006.M2TS      4610 (0x1202)   0x90            PGS             eng (English)           1094.010                18                      2,398,148       14,064          
00006.M2TS      4611 (0x1203)   0x90            PGS             eng (English)           1094.010                0                       137             8               
00015.M2TS      4113 (0x1011)   0x1B            AVC                                     0.876                   41                      4,531           32              

dcoke22
Posts: 1509
Joined: Wed Jul 22, 2020 11:25 pm

Re: Recent discs are split with multiple M2TS.

Post by dcoke22 »

Blu-rays (including UHDs) support seamless branching. As such, it is relatively common for a single title (aka .mpls) to be comprised of multiple .m2ts files.

Are you trying to understand seamless branching or are you asking a different question?
Yoshitaka
Posts: 7
Joined: Sun Mar 27, 2022 1:41 am

Re: Recent discs are split with multiple M2TS.

Post by Yoshitaka »

dcoke22 wrote:
Thu Dec 08, 2022 5:49 pm
Blu-rays (including UHDs) support seamless branching. As such, it is relatively common for a single title (aka .mpls) to be comprised of multiple .m2ts files.

Are you trying to understand seamless branching or are you asking a different question?
How do I extract subs from these types of discs if mpls does not have subtitles upon loading into programs for demuxing? Strange I'm only seeing the seamless branching now after so many years of watching BD's.
dcoke22
Posts: 1509
Joined: Wed Jul 22, 2020 11:25 pm

Re: Recent discs are split with multiple M2TS.

Post by dcoke22 »

The few times I've needed to extract subtitles, I've always done it from a .mkv file and used the MKVToolNix tools. MakeMKV assembles multiple .m2ts files into a single .mkv file.

There are others on this forum who know a lot more about subtitles than I do. If they choose to comment, they'll probably have better ideas than I do.
Yoshitaka
Posts: 7
Joined: Sun Mar 27, 2022 1:41 am

Re: Recent discs are split with multiple M2TS.

Post by Yoshitaka »

I guess I'm dumb. I got it figured out with Makemkv.
Post Reply