Vertigo 4k UHD Only Ripping With Commentary

Please post here for issues related to UHD discs
Post Reply
ETR34
Posts: 4
Joined: Sun Jul 31, 2022 5:44 pm

Vertigo 4k UHD Only Ripping With Commentary

Post by ETR34 »

Hi, sorry if this is a noob question or not how this works, but I didn't see this covered elsewhere. I have the steelbook Vertigo 4K UHD (I purchased it standalone but it could be the same disc that's in the Alfred Hitchcock Collection) and am ripping with a BU40N, but every time I rip the disc, I only get the main film video file with commentary. I have tried ripping the entire disc, but it only appears to make videos with the commentary. Any help or advice would be appreciated.
AngryVirginian
Posts: 36
Joined: Tue Jul 21, 2020 4:52 pm

Re: Vertigo 4k UHD Only Ripping With Commentary

Post by AngryVirginian »

Media info of the MKV file would help. My guess is that your player cannot play DTS:HD or Dolby TrueHD track and defaulted to the DD stereo commentary track.

Sent from my Pixel 6 Pro using Tapatalk

Woodstock
Posts: 8934
Joined: Sun Jul 24, 2011 11:21 pm

Re: Vertigo 4k UHD Only Ripping With Commentary

Post by Woodstock »

Or the commentary track is the first track in the file. MakeMKV does not NORMALLY flag tracks as "default", but it can... but only the first track found. It depends heavily on how the disk is mastered.
MakeMKV Frequently Asked Questions
How to aid in finding the answer to your problem: Activating Debug Logging
sephirothkefka
Posts: 11
Joined: Thu Dec 09, 2021 10:18 am

Re: Vertigo 4k UHD Only Ripping With Commentary

Post by sephirothkefka »

I just ripped this disc yesterday and it definitely an issue with OP's player. I recommend the K-lite codec pack myself and MadVR.
ETR34
Posts: 4
Joined: Sun Jul 31, 2022 5:44 pm

Re: Vertigo 4k UHD Only Ripping With Commentary

Post by ETR34 »

Thank you everyone for the info. Going to try the rip on another player to confirm for myself.
AngryVirginian wrote:
Wed Aug 10, 2022 3:01 pm
Media info of the MKV file would help.
I am sorry for my incredibly dumb question, but where would I find this info so I could share it? Windows 10 operating system if that's info you'd need.
ETR34
Posts: 4
Joined: Sun Jul 31, 2022 5:44 pm

Re: Vertigo 4k UHD Only Ripping With Commentary

Post by ETR34 »

Thank you everyone for your patience and pointing me in the right directions. Here's the media info it gave me, in case it gives anyone more insight:
General
Format : Matroska
Format version : Version 2
File size : 77.3 GiB
Duration : 2 h 8 min
Overall bit rate mode : Variable
Overall bit rate : 86.1 Mb/s
Movie name : Vertigo
Encoded date : UTC 2022-08-06 17:45:50
Writing application : MakeMKV v1.17.1 win(x64-release)
Writing library : libmakemkv v1.17.1 (1.3.10/1.5.2) win(x64-release)

Video
ID : 1
ID in the original source medium : 4113 (0x1011)
Format : HEVC
Format/Info : High Efficiency Video Coding
Format profile : Main 10@L5.1@High
HDR format : SMPTE ST 2086, HDR10 compatible
Codec ID : V_MPEGH/ISO/HEVC
Duration : 2 h 8 min
Bit rate : 79.8 Mb/s
Width : 3 840 pixels
Height : 2 160 pixels
Display aspect ratio : 16:9
Frame rate mode : Constant
Frame rate : 23.976 (24000/1001) FPS
Color space : YUV
Chroma subsampling : 4:2:0 (Type 2)
Bit depth : 10 bits
Bits/(Pixel*Frame) : 0.401
Stream size : 71.6 GiB (93%)
Language : English
Default : No
Forced : No
Color range : Limited
Color primaries : BT.2020
Transfer characteristics : PQ
Matrix coefficients : BT.2020 non-constant
Mastering display color primaries : Display P3
Mastering display luminance : min: 0.0050 cd/m2, max: 1000 cd/m2
Maximum Content Light Level : 1000 cd/m2
Maximum Frame-Average Light Level : 63 cd/m2
Original source medium : Blu-ray

Audio #1
ID : 2
ID in the original source medium : 4352 (0x1100)
Format : DTS XLL X
Format/Info : Digital Theater Systems
Commercial name : DTS-HD Master Audio
Codec ID : A_DTS
Duration : 2 h 8 min
Bit rate mode : Variable
Bit rate : 3 188 kb/s
Channel(s) : 8 channels
Channel(s)_Original : Object Based
ChannelLayout_Original : Object Based
Sampling rate : 48.0 kHz
Frame rate : 93.750 FPS (512 SPF)
Bit depth : 24 bits
Stream size : 2.86 GiB (4%)
Title : Surround 7.1
Language : English
Default : Yes
Forced : No
Original source medium : Blu-ray
ETR34
Posts: 4
Joined: Sun Jul 31, 2022 5:44 pm

Re: Vertigo 4k UHD Only Ripping With Commentary

Post by ETR34 »

sephirothkefka wrote:
Thu Aug 11, 2022 1:34 am
I just ripped this disc yesterday and it definitely an issue with OP's player.
It was indeed an issue with my player, tried this file and two others I had similar issues with in another player and they all played perfectly. Thank you everyone for helping a newbie figure this out, was starting to think I was crazy.
Post Reply